Details for this torrent 

Jusqu'à la garde 2017 720p BRRip x264-titler
Type:
Video > HD - Movies
Files:
4
Size:
967.41 MiB (1014398917 Bytes)
Tag(s):
Custody Custody 2017 Jusqu'a la garde Jusqu'a la garde 2017
Uploaded:
2018-09-14 23:53:25 GMT
By:
movieZ.freak VIP
Seeders:
0
Leechers:
1
Comments
0  

Info Hash:
8F2AD209B79C1A5FCD13029086D627A27633668E




   
SOURCE:
--------------
Custody 2017 720p BluRay x264-DEPTH

http://www.imdb.com/title/tt6002232/

http://www.rottentomatoes.com/m/custody_2018/

http://en.wikipedia.org/wiki/Custody_(2017_film)
- SAMPLE: Yes
- SUBTITLE: English
- LANGUAGE / AUDIO: French
SCREENSHOTS:
------------------- 
http://imgur.com/a/sQzBDdI
DIRECTOR: Xavier Legrand
CAST: Léa Drucker, Denis Ménochet, Thomas Gioria, Mathilde Auneveux, ...
PLOT:
-----------
A broken marriage leads to a bitter custody battle with an embattled son at the centre.
************************************
- Duration: 1h 34min
- Nominal bit rate: 1290 kb/s
- Res: 1280 x 536
- AR: 2.40:1
- FPS: 24.000 FPS
- Audio: AAC, 2 channels, 128 Kbps
************************************
General
--------------
Format : Matroska
Format version : Version 4 / Version 2
File size : 951 MiB
Duration : 1h 34min
Overall bit rate : 1414 kb/s
Encoded date : UTC 2018-09-14 21:31:06
Writing application : mkvmerge v26.0.0 ('In The Game') 64-bit
Writing library : libebml v1.3.6 + libmatroska v1.4.9
Video
----------
Format : AVC
Format/Info : Advanced Video Codec
Format profile : [email protected]
Format settings : CABAC / 5 Ref Frames
Format settings, CABAC : Yes
Format settings, ReFrames : 5 frames
Codec ID : V_MPEG4/ISO/AVC
Duration : 1h 34min
Bit rate : 1290 kb/s
Width : 1280 pixels
Height : 536 pixels
Display aspect ratio : 2.40:1
Frame rate mode : Constant
Frame rate : 24.000 FPS
Color space : YUV
Chroma subsampling : 4:2:0
Bit depth : 8 bits
Scan type : Progressive
Bits/(Pixel*Frame) : 0.078
Stream size : 863 MiB (91%)
Writing library : x264 core 142
Encoding settings : cabac=1 / ref=5
Default : Yes
Forced : No
Audio
----------
Format : AAC
Format/Info : Advanced Audio Codec
Format profile : LC
Codec ID : A_AAC-2
Duration : 1h 34min
Bit rate : 128 kb/s
Channel(s) : 2 channels
Channel positions : Front: L R
Sampling rate : 48.0 kHz
Compression mode : Lossy
Stream size : 86.1 MiB (9%)
Title : Stereo
Language : French
Default : Yes
Forced : No