Details for this torrent 

Skylanders Academy series 02 (2017) (avi)
Type:
Video > TV shows
Files:
13
Size:
2.38 GiB (2552316710 Bytes)
Info:
IMDB
Spoken language(s):
English
Texted language(s):
English
Tag(s):
Animation Children CGI Science-Fiction Fantasy Adventure
Uploaded:
2018-10-12 15:52:32 GMT
By:
moronorless
Seeders:
1
Leechers:
0
Comments
0  

Info Hash:
F1B83606D3D848D40B7173725445A19F7842CBA3




   
Netflix Skylanders Academy
Series 1 2016-10-28
Series 2 2017-10-06
Series 3 2018-09-28
The series follows the heroic adventures of the Skylanders team, a group of heroes with unique elemental skills and personalities who travel the vast Skylands universe, protecting it from evil-doers and showing the next wave of Academy cadets how to do things the Skylander way.
IMDB ID: tt5916218
Tags: Animation, Children, CGI, Science-Fiction, Fantasy, Adventure

http://www.thetvdb.com/series/skylanders-academy
compressed XviD-AFG files using "Any Video Converter" v 3.2.3
Video Information:
General
Format                                   : AVI
Format/Info                              : Audio Video Interleave
File size                                : 348 MiB
Duration                                 : 44 min 33 s
Overall bit rate mode                    : Variable
Overall bit rate                         : 1 093 kb/s
Writing application                      : MEncoder Sherpya-SVN-r32492-4.2.5
Writing library                          : MPlayer
Video
ID                                       : 0
Format                                   : MPEG-4 Visual
Format profile                           : [email protected]
Format settings, BVOP                    : No
Format settings, QPel                    : No
Format settings, GMC                     : No warppoints
Format settings, Matrix                  : Default (H.263)
Codec ID                                 : XVID
Codec ID/Hint                            : XviD
Duration                                 : 44 min 33 s
Bit rate                                 : 961 kb/s
Width                                    : 640 pixels
Height                                   : 360 pixels
Display aspect ratio                     : 16:9
Frame rate                               : 24.000 FPS
Color space                              : YUV
Chroma subsampling                       : 4:2:0
Bit depth                                : 8 bits
Scan type                                : Progressive
Compression mode                         : Lossy
Bits/(Pixel*Frame)                       : 0.174
Stream size                              : 306 MiB (88%)
Writing library                          : XviD 1.2.1 (UTC 2008-12-04)
Audio
ID                                       : 1
Format                                   : MPEG Audio
Format version                           : Version 1
Format profile                           : Layer 3
Format settings                          : Joint stereo / MS Stereo
Codec ID                                 : 55
Codec ID/Hint                            : MP3
Duration                                 : 44 min 32 s
Bit rate mode                            : Variable
Bit rate                                 : 119 kb/s
Channel(s)                               : 2 channels
Sampling rate                            : 44.1 kHz
Compression mode                         : Lossy
Stream size                              : 38.1 MiB (11%)
Alignment                                : Aligned on interleaves
Interleave, duration                     : 26  ms (0.63 video frame)
Interleave, preload duration             : 139  ms
Writing library                          : LAME3.98.4